Загрузка...
Ошибка

Ходячие мертвецы / The Walking Dead (Френк Дарабонт) [S2E1-13] [Novafilm FoxCrimeSound] [2011 г., Ужасы, WebDLRip]

Страницы:  1, 2, 3 ... 10, 11, 12  След.

Ответить на тему
 
Автор Сообщение

Zarkon

Стаж: 8 лет 1 месяц

Сообщений: 7535

Откуда: Новочеркасск

post 18-Окт-2011 00:33

[Цитировать]  [] 

Ходячие мертвецы / The Walking Dead

Сезон: 2
Серия: 1-13
Год выпуска: 2011-2012
Страна: США
Жанр: Ужасы
Продолжительность: 45 мин.
Перевод: Профессиональный (многоголосый, закадровый) // FOXCRIME

Режиссер: Френк Дарабонт

В ролях: Jon Bernthal, Jeffrey DeMunn, Laurie Holden, Andrew Lincoln, Adam Minarovich, Chandler Riggs, Michael Rooker, Sarah Wayne Callies, Steven Yeun и др.

Описание: Вирус превратил жителей Земли в зомби. Небольшая группа выживших изо дня в день борется за существование в новом, враждебном мире. Под предводительством бывшего полицейского Рика они ищут безопасное для жизни место. Но не стоит заблуждаться — зомби отнюдь не самое страшное, что ждет наших героев. Основная опасность — другие оставшиеся в живых...

Качество: WEB-DLRip
Формат: AVI
Видео кодек: XviD
Аудио кодек: MP3
Видео: 624x352 (16:9), 23.976 fps, MPEG-4 Visual (XviD), ~1068 kbps avg, 0.203 bit/pixel
Аудио: 48 kHz, MPEG Audio (mp3) 2 ch, ~128.00 kbps avg [FoxCrime]

_________________
У трекера появился твиттер. Следуйте за @dontrackernews


Последний раз редактировалось: Zarkon (01.03.2012 11:28), всего редактировалось 15 раз(а)
[Профиль]  [ЛС] 

Zarkon

Стаж: 8 лет 1 месяц

Сообщений: 7535

Откуда: Новочеркасск

post 18-Окт-2011 00:35 (спустя 1 минута)

[Цитировать]  [] 

Релиз отсюда: http://lostfilm.tv/browse.php?cat=134
НО! Озвучка ФоксКрайм, а не Кравец.

_________________
У трекера появился твиттер. Следуйте за @dontrackernews
[Профиль]  [ЛС] 

keni-dok

Стаж: 7 лет 3 месяца

Сообщений: 1384

Откуда: шахты (ПО ВСЕМ МОИМ РАЗДАЧАМ ПИШИТЕ В ЛС)

post 18-Окт-2011 00:38 (спустя 3 минуты)

[Цитировать]  [] 

спасиб через 20 мин на раздаче буду

_________________
ICQ 311159411
[Профиль]  [ЛС] 

EngelS

Стаж: 8 лет 1 месяц

Сообщений: 774

Откуда: Новочеркасск

post 18-Окт-2011 00:39 (спустя 1 минута)

[Цитировать]  [] 

Ээээ абисни, плиз, это уже после того, как длинный и худосощный инопланетянин "пригласил" к себе после погрома треногого строения? а то это было таак давно au

_________________
Темы не мониторю, об исправлениях писать ЛС со ссылкой на раздачу.
[Профиль]  [ЛС] 

Zarkon

Стаж: 8 лет 1 месяц

Сообщений: 7535

Откуда: Новочеркасск

post 18-Окт-2011 00:40 (спустя 9 секунд)

[Цитировать]  [] 

EngelS
Эээ, эта ни тот сириал

_________________
У трекера появился твиттер. Следуйте за @dontrackernews
[Профиль]  [ЛС] 

keni-dok

Стаж: 7 лет 3 месяца

Сообщений: 1384

Откуда: шахты (ПО ВСЕМ МОИМ РАЗДАЧАМ ПИШИТЕ В ЛС)

post 18-Окт-2011 00:43 (спустя 3 минуты)

[Цитировать]  [] 

я первый ab .ради такого все раздачи отключу

_________________
ICQ 311159411
[Профиль]  [ЛС] 

EngelS

Стаж: 8 лет 1 месяц

Сообщений: 774

Откуда: Новочеркасск

post 18-Окт-2011 00:45 (спустя 1 минута)

[Цитировать]  [] 

Упс. а я обрадовался, думал про тех ящерков. Тогда этот я ваще не помню, будет как новый)

_________________
Темы не мониторю, об исправлениях писать ЛС со ссылкой на раздачу.
[Профиль]  [ЛС] 

Black Fog

Стаж: 8 лет 1 месяц

Сообщений: 1438

Откуда: у тебя руки растут?

post 18-Окт-2011 00:46 (спустя 1 минута)

[Цитировать]  [] 

EngelS ap

Что-то лостфильм совсем перестал сериалы переводить. Начинают, переводят сезон, а потом, когда народ уже привык к голосам персонажей, другой сезон выкладывают в другой озвучке. Зато того же декстера переводят, с переводом которого, прекрасно нова справляется. Хорошо я мертвоходов начал в переводе от новы смотреть. Правда они в последнее время с большой задержкой выкладывают серии ac
[Профиль]  [ЛС] 

segunov

Стаж: 7 лет 6 месяцев

Сообщений: 453

Откуда: Матушка Россия

post 18-Окт-2011 00:55 (спустя 8 минут)

[Цитировать]  [] 

Что-то на Лосте его уже нет

_________________
Дай бог всем иметь то, что имеют те, кто имеют нас
[Профиль]  [ЛС] 

keni-dok

Стаж: 7 лет 3 месяца

Сообщений: 1384

Откуда: шахты (ПО ВСЕМ МОИМ РАЗДАЧАМ ПИШИТЕ В ЛС)

post 18-Окт-2011 01:02 (спустя 7 минут)

[Цитировать]  [] 

проста обидно я от новы ни разу озвучки не слышал придётся слушать.

segunov писал(а):

Что-то на Лосте его уже нет
но однако кто не успел тот опоздал. это для достоверности

_________________
ICQ 311159411
[Профиль]  [ЛС] 

segunov

Стаж: 7 лет 6 месяцев

Сообщений: 453

Откуда: Матушка Россия

post 18-Окт-2011 01:04 (спустя 2 минуты)

[Цитировать]  [] 

keni-dok писал(а):

но однако кто не успел тот опоздал.
Ничего страшного, завтра будет лучше ae , вот тогда и скачаю.

_________________
Дай бог всем иметь то, что имеют те, кто имеют нас
[Профиль]  [ЛС] 

keni-dok

Стаж: 7 лет 3 месяца

Сообщений: 1384

Откуда: шахты (ПО ВСЕМ МОИМ РАЗДАЧАМ ПИШИТЕ В ЛС)

post 18-Окт-2011 01:54 (спустя 49 минут)

[Цитировать]  [] 

Телеканал AMC продлил свой новый сериал The Walking Dead ("Ходячие мертвецы") на второй сезон, который будет состоять из 13 эпизодов.
Формат : AVI
Формат/Информация : Audio Video Interleave
Размер файла : 908 Мбайт
Продолжительность : 1 ч. 2 м.
Общий поток : 2023 Кбит/сек
Программа кодирования : Nandub v1.0rc2
Библиотека кодирования : Nandub build 1853/release

Видео
Идентификатор : 0
Формат : MPEG-4 Visual
Профиль формата : Simple@L3
Параметр BVOP формата : Нет
Параметр QPel формата : Нет
Параметр GMC формата : Без точки перехода
Параметр матрицы формата : Default (H.263)
Идентификатор кодека : XVID
Идентификатор кодека/Подсказка : XviD
Продолжительность : 1 ч. 2 м.
Битрейт : 1823 Кбит/сек
Ширина : 720 пикселей
Высота : 400 пикселей
Соотношение сторон : 16:9
Частота кадров : 23,976 кадра/сек
Цветовое пространство : YUV
Субдискретизация насыщенности : 4:2:0
Битовая глубина : 8 бит
Тип развёртки : Прогрессивная
Метод сжатия : С потерями
Бит/(Пиксели*Кадры) : 0.264
Размер потока : 818 Мбайт (90%)
Библиотека кодирования : XviD 1.2.1 (UTC 2008-12-04)

Аудио
Идентификатор : 1
Формат : MPEG Audio
Версия формата : Version 1
Профиль формата : Layer 3
Режим : Joint stereo
Расширение режима : MS Stereo
Идентификатор кодека : 55
Идентификатор кодека/Подсказка : MP3
Продолжительность : 1 ч. 2 м.
Вид битрейта : Переменный
Битрейт : 192 Кбит/сек
Каналы : 2 канала
Частота : 48,0 КГц
Метод сжатия : С потерями
Размер потока : 83,8 Мбайт (9%)
Выравнивание : Соединение по промежуткам
Продолжительность промежутка : 24 мс. (0,58 видеокадр)
Время предзагрузки промежутка : 513 мс.
Библиотека кодирования : LAME3.97b
Настройки программы : -m j -V 4 -q 3 -lowpass 18.6 --abr 192

Цитата:

Ничего страшного, завтра будет лучше , вот тогда и скачаю.
нет не скачаешь.

_________________
ICQ 311159411
[Профиль]  [ЛС] 

DjonK88

Стаж: 6 лет 3 месяца

Сообщений: 23

post 18-Окт-2011 09:15 (спустя 7 часов)

[Цитировать]  [] 

Опачки дождались сказочки на ночь bp
[Профиль]  [ЛС] 

Zarkon

Стаж: 8 лет 1 месяц

Сообщений: 7535

Откуда: Новочеркасск

post 18-Окт-2011 10:39 (спустя 1 час 23 минуты)

[Цитировать]  [] 

keni-dok
Поправил

_________________
У трекера появился твиттер. Следуйте за @dontrackernews
[Профиль]  [ЛС] 

[Dante]

Стаж: 5 лет 11 месяцев

Сообщений: 39

Откуда: Novocherkassk

post 18-Окт-2011 11:11 (спустя 32 минуты)

[Цитировать]  [] 

На 3м скрине что Николай Дроздов? ap
[Профиль]  [ЛС] 
Показать сообщения:    
Ответить на тему

Текущее время: 23-Янв 16:32

Часовой пояс: GMT + 4



Вы не можете начинать темы
Вы не можете отвечать на сообщения
Вы не можете редактировать свои сообщения
Вы не можете удалять свои сообщения
Вы не можете голосовать в опросах
Вы не можете прикреплять файлы к сообщениям
Вы не можете скачивать файлы